Могучие утята: Новые правила / The Mighty Ducks: Game Changers [01х01 из 10] (2021) WEB-DL 1080p | HDRezka Studio

2-04-2021, 08:39
Могучие утята: Новые правила / The Mighty Ducks: Game Changers [01х01 из 10] (2021) WEB-DL 1080p | HDRezka Studio
Название: Могучие утята: Новые правила
Оригинальное название: The Mighty Ducks: Game Changers
Год выхода: 2021
Жанр: Драма, комедия, спорт
Режиссер: Майкл Спиллер, Джей Карас, Джеймс Гриффитс

В ролях:
Лорен Грэм, Эмилио Эстевес, Брэйди Нун, Максвелл Симкинс, Джули Серда, Тэджен Бёрнс, Кифер О’Рейли, Ди’Джон Уоттс, Лия Франклэнд, Эмили Хейн, Камиллия Махал и др.

Описание сериала:
Подросток Эван терпит поражение, и его выгоняют из культовой хоккейной команды. Тогда мама Алекс решает создать альтернативную команду из лузеров, которая будет противостоять «Могучим утятам».

Страна: США
Студия: ABC Studios, Brillstein Entertainment Partners, Goldsmith Yuspa Productions
Продолжительность: ~0:45:00
Перевод: Профессиональный (многоголосый, закадровый) HDRezka Studio
Субтитры: Русские (Forced), английские

Формат: MKV
Качество: WEB-DL (1080p)

Видео: 1920x1080 (16:9), 23,976 fps, AVC (х264), High@L4, ~6558 kbps avg, 0.132 bit/pixel
Аудио RUS: Аудио ENG: Могучие утята: Новые правила / The Mighty Ducks: Game Changers [01х01 из 10] (2021) WEB-DL 1080p | HDRezka Studio 48 kHz, E-AC3, 3/2 (L,C,R,l,r) + LFE ch, ~256 kbps avg


 
Общее
Уникальный идентификатор : 155785852416723555880219130388021469800 (0x75334388EDE8F52DA470B58409236268)
Полное имя : The.Mighty.Ducks.Game.Changers.2021.S01E01.WEB-DL.1080p.DSNP.HDREZKA.STUDIO.mkv
Формат : Matroska
Версия формата : Version 4
Размер файла : 1,93 Гбайт
Продолжительность : 38 м. 0 с.
Режим общего битрейта : Переменный
Общий поток : 7 264 Кбит/сек
Дата кодирования : UTC 2021-04-01 17:25:20
Программа кодирования : mkvmerge v55.0.0 ('Waiting For Space') 64-bit
Библиотека кодирования : libebml v1.4.2 + libmatroska v1.6.4

Видео
Идентификатор : 1
Формат : AVC
Формат/Информация : Advanced Video Codec
Профиль формата : High@L4
Настройки формата : CABAC / 4 Ref Frames
Параметр CABAC формата : Да
Параметр RefFrames формата : 4 кадра
Идентификатор кодека : V_MPEG4/ISO/AVC
Продолжительность : 38 м. 0 с.
Вид битрейта : Переменный
Битрейт : 6 558 Кбит/сек
Максимальный битрейт : 12,7 Мбит/сек
Ширина : 1 920 пикселей
Высота : 1 080 пикселей
Соотношение сторон : 16:9
Режим частоты кадров : Постоянный
Частота кадров : 23,976 (24000/1001) кадра/сек
Цветовое пространство : YUV
Субдискретизация насыщенности : 4:2:0
Битовая глубина : 8 бит
Тип развёртки : Прогрессивная
Бит/(Пиксели*Кадры) : 0.132
Размер потока : 1,74 Гбайт (90%)
Default : Да
Forced : Нет
Цветовой диапазон : Limited
Основные цвета : BT.709
Характеристики трансфера : BT.709
Коэффициенты матрицы : BT.709

Аудио #1
Идентификатор : 2
Формат : AC-3
Формат/Информация : Audio Coding 3
Коммерческое название : Dolby Digital
Идентификатор кодека : A_AC3
Продолжительность : 38 м. 0 с.
Вид битрейта : Постоянный
Битрейт : 448 Кбит/сек
Каналы : 6 каналов
Channel layout : L R C LFE Ls Rs
Частота : 48,0 КГц
Частота кадров : 31,250 кадров/сек (1536 SPF)
Метод сжатия : С потерями
Размер потока : 122 Мбайт (6%)
Язык : Russian
Default : Да
Forced : Нет

Аудио #2
Идентификатор : 3
Формат : E-AC-3
Формат/Информация : Enhanced AC-3
Коммерческое название : Dolby Digital Plus
Идентификатор кодека : A_EAC3
Продолжительность : 38 м. 0 с.
Вид битрейта : Постоянный
Битрейт : 256 Кбит/сек
Каналы : 6 каналов
Channel layout : L R C LFE Ls Rs
Частота : 48,0 КГц
Частота кадров : 31,250 кадров/сек (1536 SPF)
Метод сжатия : С потерями
Размер потока : 69,6 Мбайт (4%)
Язык : English
Default : Нет
Forced : Нет

Текст #1
Идентификатор : 4
Формат : UTF-8
Идентификатор кодека : S_TEXT/UTF8
Идентификатор кодека/Информация : UTF-8 Plain Text
Продолжительность : 20 м. 36 с.
Битрейт : 1 бит/сек
Count of elements : 5
Размер потока : 192 байт (0%)
Заголовок : Forced
Язык : Russian
Default : Нет
Forced : Нет

Текст #2
Идентификатор : 5
Формат : UTF-8
Идентификатор кодека : S_TEXT/UTF8
Идентификатор кодека/Информация : UTF-8 Plain Text
Продолжительность : 36 м. 45 с.
Битрейт : 90 бит/сек
Count of elements : 695
Размер потока : 24,3 Кбайт (0%)
Заголовок : English [CC]
Язык : English
Default : Нет
Forced : Нет
 
Внимание! Раздача ведётся путём добавления новых серий; при каждом добавлении создаётся новый торрент. Чтобы начать докачку новой серии, пользователям необходимо сделать следующее:
(1) остановить скачивание,
(2) удалить старый торрент у себя из клиента (старые серии удалять не надо),
(3) скачать новый торрент и запустить его у себя в клиенте вместо старого, при этом указать клиенту путь в старую папку куда и должно происходить скачивание новых серий.

Ваш клиент при этом должен произвести хеширование (проверку) старой папки (если не производит сам - помогите ему сделать это), и будет докачивать только те серии которых у вас ещё нет. Старые серии при этом не удаляются, а продолжают раздаваться!

Eсли вы уже удалили старые серии, то предотвратить повторную закачку старых серий можно, отжав галочку в соответсвующих местах при запуске нового торрента. По возможности, желательно не удалять старые серии как можно дольше чтобы релизёр не столько продолжал раздавать старые серии, а смог сконцентрироваться на новых.
 
[url=https://fastpic.ru/view/114/2021/0401/_f141392a64035199d0ac23ba4bb9890c.jpg.html]







Размер: 1.93 GB


Имя:*