Сокол и Зимний Солдат / The Falcon and the Winter Soldier [01x02 из 06] (2021) WEB-DLRip 1080p | D | Flarrow Films

5-04-2021, 04:00
Сокол и Зимний Солдат / The Falcon and the Winter Soldier [01x02 из 06] (2021) WEB-DLRip 1080p | D | Flarrow Films
Название: Сокол и Зимний Солдат
Оригинальное название: The Falcon and the Winter Soldier
Год выхода: 2021
Жанр: фантастика, боевик, драма, приключения
Режиссеры: Кари Скогланд
В ролях: Себастиан Стэн, Энтони Маки, Эмили ВанКэмп, Даниэль Брюль, Эрин Келлиман, Эдеперо Одуйе, Десмонд Чайм, Уайатт Рассел, Джон Геттье, Мики Исикава

О фильме:
Сэм Уилсон примерит костюм нового Капитана Америка и попытается справиться с миссией, возложенной на него Стивом Роджерсом. Баки, в свою очередь, готов вновь стать частью общества и поближе познакомиться со всем, что предлагает современный мир.
Страна: США
Продолжительность: ~ 00:47:15 (серия)
Перевод: Дублированный (любительский) | Flarrow Films

Роли озвучивали: Ахилл Намазов, Денис Кузьмичёв, Даниил Эльдаров, Дмитрий Лунёв, Алёна Соколова, Семён Евсиков, Алена Козлова, Алина Лихачева, Рута Новикова, Дмитрий Бугаков, Алексей Ядренников, Алексей Щегорский, Данила Глухов и Виталий Кашеваров

Файл
Формат: MKV
Кодек: MPEG-4 AVC
Качество: WEB-DLRip 1080p (локализованный видеоряд)
Видео: 1920х1080, ~ 6 731 kb/s, 24.000 FPS, 8 bits
Звук: AC-3, 320 kb/s, 2 channels, 48.0 kHz
Субтитры: русские (отключаемые UTF-8)

[spoiler=MediaInfo]

General
Unique ID : 275665580283275454903774200946466761306 (0xCF63427335699E7A961D6CC05B682A5A)
Complete name : C:FlarrowThe.Falcon.and.the.Winter.Soldier.S01.1080p.D.Flarrow.FilmsThe.Falcon.and.the.Winter.Soldier.S01E01.1080p.D.Flarrow.Films.mkv
Format : Matroska
Format version : Version 4
File size : 2.33 GiB
Duration : 47 min 16 s
Overall bit rate : 7 051 kb/s
Encoded date : UTC 2021-03-26 09:01:28
Writing application : mkvmerge v32.0.0 ('Astral Progressions') 64-bit
Writing library : libebml v1.3.7 + libmatroska v1.5.0

Video
ID : 1
Format : AVC
Format/Info : Advanced Video Codec
Format profile : High@L4
Format settings : CABAC / 4 Ref Frames
Format settings, CABAC : Yes
Format settings, Reference : 4 frames
Format settings, GOP : M=3, N=24
Codec ID : V_MPEG4/ISO/AVC
Duration : 47 min 15 s
Bit rate : 6 731 kb/s
Width : 1 920 pixels
Height : 1 080 pixels
Display aspect ratio : 16:9
Frame rate mode : Constant
Frame rate : 24.000 FPS
Color space : YUV
Chroma subsampling : 4:2:0
Bit depth : 8 bits
Scan type : Progressive
Bits/(Pixel*Frame) : 0.135
Stream size : 2.22 GiB (95%)
Language : Russian
Default : Yes
Forced : No
Color range : Limited
Color primaries : BT.709
Transfer characteristics : BT.709
Matrix coefficients : BT.709

Audio
ID : 2
Format : AC-3
Format/Info : Audio Coding 3
Commercial name : Dolby Digital
Codec ID : A_AC3
Duration : 47 min 16 s
Bit rate mode : Constant
Bit rate : 320 kb/s
Channel(s) : 2 channels
Channel layout : L R
Sampling rate : 48.0 kHz
Frame rate : 31.250 FPS (1536 SPF)
Compression mode : Lossy
Stream size : 108 MiB (5%)
Language : Russian
Service kind : Complete Main
Default : Yes
Forced : No

Text
ID : 3
Format : UTF-8
Codec ID : S_TEXT/UTF8
Codec ID/Info : UTF-8 Plain Text
Duration : 40 min 44 s
Bit rate : 106 b/s
Count of elements : 559
Stream size : 31.6 KiB (0%)
Language : Russian
Default : Yes
Forced : No

[/spoiler]

[spoiler=Скриншоты]
[url=https://b.radikal.ru/b10/2103/54/7d61b2b50022.jpg]Примечание: Без интро Flarrow Films
Сокол и Зимний Солдат / The Falcon and the Winter Soldier [01x02 из 06] (2021) WEB-DLRip 1080p | D | Flarrow Films








Размер: 4.66 GB


Имя:*